สถิติฟอรั่ม ช่วยเหลือ
  • 1564เข้าชม
  • 16ตอบกลับ

[Mini-HD] [Mini-hidef-dvd quality] ลัดดาแลนด์ 2011 [Laddaland] 1080p-CtHts

ระดับ : ปริญญาเอก
[Mini-hidef-dvd quality] Laddaland [2011] 1080p-CtHts
-ต้นฉบับเป็นdvd9ของท่าน kekoku
-Rip by komkam

Laddaland [2011]
เรื่องย่อ

       บ้าน ปัจจัยสี่ในฝันที่ทุกคนอยากเป็นเจ้าของ ธีร์ (สหรัถ สังคปรีชา) ก็เช่นกัน เขาก็เหมือนหนุ่มสาวอีกนับแสนนับล้านคนในกรุงเทพฯ ที่ไม่มีปัญญาซื้อบ้าน ลำพังเงินเดือนพนัก
งานออฟฟิศธรรมดาๆของธีร์ การเก็บหอมรอมริบหาเงินมาดาวน์บ้านเป็นภาระ

สาหัสเกินไป ทุกวันนี้ธีร์ เช่าอพาร์ตเมนต์เป็นที่อยู่ มันเป็นปมด้อยที่ทำให้เขารู้สึกผิดต่อทุกคนในครอบครัว ป่าน (ปิยธิดา วรมุสิก) – ภรรยาที่แม่ยายพร่ำกรอกหูอยู่ตลอดเวลาว่าเขา
กระจอกเกินไปสำหรับเธอ แนน - ลูกสาววัยรุ่นที่ธีร์ ไม่เคยได้อยู่ร่วมชายคา

เพราะส่งไปให้แม่ยายช่วยเลี้ยงดู นัท – ลูกชายวัย 5 ขวบที่ยังเดียงสาพอจะเห็นพ่ออย่างเขาเป็นฮีโร่

       ในวัยย่าง 40 ธีร์ คิดว่าตัวเองคงเป็นสามี เป็นพ่อ เป็นหัวหน้าครอบครัวที่ไม่เอาไหนหากไม่สามารถมีบ้านสักหลังไว้เป็นหลัก ประกันความสุขของ “ครอบครัว” โอกาสมาถึงเมื่อ
ธีร์ ได้รับข้อเสนอ เป็นตำแหน่งผู้ช่วยฝ่ายการตลาดที่บริษัทแห่งหนึ่งในจังหวัด

เชียงใหม่ ด้วยเงินเดือนที่มากขึ้นและค่าที่ดินที่ถูกลง บ้านเดี่ยวหลังใหญ่แบบในหนังโฆษณาก็ไม่ใช่ฝันที่เกินเอื้อมอีกต่อไป ธีร์ ตัดสินใจทิ้งชีวิตเก่าเพื่อไปตั้งรกรากในบ้านที่เขาเฟ้นแล้ว
เฟ้นอีกว่าดีที่ สุดโดยไม่ฟังคำทัดทานของทั้งเมียและลูก ธีร์ เชื่อว่าครอบครัวของเขาจะมีความสุขมากกว่าที่ หมู่บ้านลัดดาแลนด์

Format                          : Matroska
File size                        : 3.41 GiB
Duration                        : 1h 52mn
Overall bit rate                : 4 341 Kbps
Movie name                      : Laddaland [2011] [D9]_T01
Encoded date                    : UTC 2011-08-12 2140
Writing application              : mkvmerge v4.6.0 (Still Crazy After All These Years) built on Mar 10 2011 0232
Writing library                  : libebml v1.2.0 + libmatroska v1.1.0

Video
ID                              : 1
Format                          : AVC
Format/Info                      : Advanced Video Codec
Format profile                  : High@L5.1
Format settings, CABAC          : Yes
Format settings, ReFrames        : 3 frames
Format settings, GOP            : M=1, N=16
Muxing mode                      : Container profile=Unknown@5.1
Codec ID                        : V_MPEG4/ISO/AVC
Duration                        : 1h 52mn
Bit rate                        : 3 956 Kbps
Width                            : 1 920 pixels
Height                          : 816 pixels
Display aspect ratio            : 2.35:1
Frame rate                      : 25.000 fps
Color space                      : YUV
Chroma subsampling              : 40
Bit depth                        : 8 bits
Scan type                        : Progressive
Bits/(Pixel*Frame)              : 0.101
Stream size                      : 3.04 GiB (89%)
Writing library                  : x264 core 114 r1924 08d04a4
Encoding settings                : cabac=1 / ref=3 / deblock=16 / analyse=0x3:0x133 / me=tesa / subme=7 / psy=1 / psy_rd
=1.00:0.00 / mixed_ref=1 / me_range=16 / chroma_me=1 / trellis=2 / 8x8dct=1 / cqm=0 / deadzone=21,11 / fast_pskip=1 /
chroma_qp_offset=-2 / threads=9 / sliced_threads=0 / nr=0 / decimate=1 / interlaced=0 / constrained_intra=0 / bfram
es=3 / b_pyramid=0 / b_adapt=2 / b_bias=0 / direct=1 / weightb=1 / open_gop=0 / weightp=2 / keyint=250 / keyint_mi
n=25 / scenecut=40 / intra_refresh=0 / rc_lookahead=40 / rc=2pass / mbtree=1 / bitrate=3956 / ratetol=1.0 / qcomp=0.
60 / qpmin=0 / qpmax=69 / qpstep=4 / cplxblur=20.0 / qblur=0.5 / vbv_maxrate=25000 / vbv_bufsize=25000 / nal_hrd
=vbr / ip_ratio=1.40 / aq=1:1.00

Audio
ID                              : 2
Format                          : AC-3
Format/Info                      : Audio Coding 3
Mode extension                  : CM (complete main)
Codec ID                        : A_AC3
Duration                        : 1h 52mn
Bit rate mode                    : Constant
Bit rate                        : 384 Kbps
Channel(s)                      : 6 channels
Channel positions                : Front: L C R, Side: L R, LFE
Sampling rate                    : 48.0 KHz
Stream size                      : 309 MiB (9%)


Credit: CtHts (Coming together.Happy to share.)
[nfsphuket / rimudi / darkvador / JFC / netboy / darnphuket / rakkhunna / freeandfree / GG44 / komkam / maxbomb
/ bOyziOO / vzio / AnfieldRoad /Champ14Za / utd[United] / KingMovie / yorukung / DRAGONFAT /
NOYII / Legendrider / kiatplk / supanyap / jukjunjao / khampeeaew / sakworbit / ShungOu / LiverPoolS / stang /
boysiambit and panad]

Upped by Forever love

----------------------------------------------------------
****** ทำความเข้าใจกันก่อนที่จะโหลด ******
----------------------------------------------------------

- ถ้าไฟล์มีปัญหาถ้าดูไม่ได้จริง ๆ ผมกราบขอโทษมา ณ ที่นี้ด้วย
- ผมขออนุญาติลบไฟล์นะครับถ้าอัตราการอัพ < 50Kbps
- ไม่ รับ  Reseed ไฟล์นะครับให้ไปตามหาจากคนที่โหลดเสร็จแล้วเอง
- พท. Hdd จำกัดด้วย ถ้าไม่พบเราใน File ดังกล่าว แสดงว่าผมไปนรกแล้ว
- โหลดเสร็จ ช่วยปล่อยต่อด้วย อยากให้ไฟล์อยู่นานๆ เผื่อคนมาทีหลังและเพื่อ RATIO ของท่าน
- วิจารณ์กันได้ครับ  แต่ขอพอหอมปากหอมคอ  อย่าเกินเลยไปมากครับ
- หากโหลดไปแล้วพอใจ กรุณามา comment ขอบคุณ เพื่อเป็นกำลังใจให้ผู้อัพโหลดไฟล์ทุกคนด้วยนะครับ
- ขอบคุณที่สละเวลาอ่านครับ ผิดพลาดประการใดขออภัยล่วงหน้านะครับ
- ใครไม่พอใจก็ไม่ต้องรับไปครับ  ผ่านกันไปได้เลยครับ  อย่ามาบั่นทอนกำลังใจกันเลยครับอยู่บ้านเดียวกัน

อ่านแล้ว ถ้าทำตามที่บอกได้ แสดงความรู้สึกแล้ว ช้าอยู่ทำไม กดโหลดโลด




[Mini-HD] [Mini-hidef-dvd quality] ลัดดาแลนด์ 2011 [Laddaland] 1080p-CtHts

File Category : ภาพยนต์ Hi-Def
File Name : [Mini-hidef-dvd quality] Laddaland [2011] 1080p-CtHts_private.zip
File Size : 3.41 GB (3,666,694,264 bytes)
Release Date : 2011-08-13 21:23:26


แบ่งปัน ::
ระดับ : อนุบาล
ระดับ : อนุบาล
sdgdfbgdfhbcfbcbcvbcvb
ระดับ : อนุบาล
dsfsdfxdvxcvdvxcvxcvxcv
ระดับ : อนุบาล
เฉพาะตอบกลับของผู้โพสต์ 4#  โพสต์เมื่อ: 2014-05-21
ระดับ : อนุบาล
เฉพาะตอบกลับของผู้โพสต์ 5#  โพสต์เมื่อ: 2014-06-02

เฉพาะตอบกลับของผู้โพสต์ 6#  โพสต์เมื่อ: 2014-06-02
อยากเลื่อนชั้นเร็วๆจัง
ระดับ : อนุบาล
เฉพาะตอบกลับของผู้โพสต์ 7#  โพสต์เมื่อ: 2014-08-05
thank you
ระดับ : อนุบาล
เฉพาะตอบกลับของผู้โพสต์ 8#  โพสต์เมื่อ: 2014-08-09
asdfasdfkljasl;fjals;fd
ระดับ : อนุบาล
เฉพาะตอบกลับของผู้โพสต์ 9#  โพสต์เมื่อ: 2014-08-16
thx
รายละเอียดไฟล์แนบ
กล่องตอบกลับด่วน

คุณไม่มีสิทธิ์ใช้งานส่วนนี้, กรุณาเข้าสู่ระบบ หรือ ลงทะเบียน
กรุณาใช้ข้อความที่สุภาพ คุณสามารถบันทึกฉบับร่างได้